Films

Télécharger X-Men : Dark Phoenix

08-09-2019
X-Men : Dark Phoenix


Origine du film :U.S.A.
Réalisateur(s) :Simon Kinberg
Acteur(s) :Sophie Turner, James McAvoy, Michael Fassbender
Genre :Aventure,Science fiction,
Année de sortie :2019-06-05
Titre Original :X-Men : Dark Phoenix
Note spectateur : - 3.2/5
Qualité/Format/Langue: HDLight 720p TRUEFRENCH

Au cours d'une mission de sauvetage dans l'espace, Jean Grey frôle la mort, frappée par une mystérieuse force cosmique. De retour sur Terre, cette force la rend non seulement infiniment plus puissante, mais aussi beaucoup plus instable. NFO x264: Show/hide text General Unique ID : 174382512902553205448601861194818515459 (0x8330D9AFBA763666063E6D9FCF5FF203) Complete name : Dark.Phoenix.2019.TRUEFRENCH.720p.BluRay.Light.x264.AC3-ACOOL.WwW.Zone-Telechargement.Net.mkv Format : Matroska Format version : Version 4 / Version 2 File size : 1.79 GiB Duration : 1 h 53 min Overall bit rate : 2 250 kb/s Movie name : X-Men : Dark Phoenix Encoded date : UTC 2019-09-07 22:09:40 Writing application : mkvmerge v25.0.0 ('Prog Noir') 64-bit Writing library : libebml v1.3.6 + libmatroska v1.4.9 Video ID : 1 Format : AVC Format/Info : Advanced Video Codec Format profile : [email protected] Format settings : CABAC / 4 Ref Frames Format settings, CABAC : Yes Format settings, ReFrames : 4 frames Codec ID : V_MPEG4/ISO/AVC Duration : 1 h 53 min Bit rate : 1 800 kb/s Width : 1 280 pixels Height : 536 pixels Display aspect ratio : 2.40:1 Frame rate mode : Constant Frame rate : 23.976 (24000/1001) FPS Color space : YUV Chroma subsampling : 4:2:0 Bit depth : 8 bits Scan type : Progressive Bits/(Pixel*Frame) : 0.109 Stream size : 1.43 GiB (80%) Writing library : x264 core 155 r2901 7d0ff22 Encoding settings : cabac=1 / ref=1 / deblock=1:0:0 / analyse=0x3:0x113 / me=hex / subme=2 / psy=1 / psy_rd=1.00:0.00 / mixed_ref=0 / me_range=16 / chroma_me=1 / trellis=0 / 8x8dct=1 / cqm=0 / deadzone=21,11 / fast_pskip=1 / chroma_qp_offset=0 / threads=17 / lookahead_threads=4 / sliced_threads=0 / nr=0 / decimate=1 / interlaced=0 / bluray_compat=0 / constrained_intra=0 / bframes=3 / b_pyramid=2 / b_adapt=1 / b_bias=0 / direct=1 / weightb=1 / open_gop=0 / weightp=1 / keyint=240 / keyint_min=24 / scenecut=40 / intra_refresh=0 / rc_lookahead=10 / rc=2pass / mbtree=1 / bitrate=1800 / ratetol=1.0 / qcomp=0.60 / qpmin=0 / qpmax=69 / qpstep=4 / cplxblur=20.0 / qblur=0.5 / vbv_maxrate=62500 / vbv_bufsize=78125 / nal_hrd=none / filler=0 / ip_ratio=1.40 / aq=1:1.00 Default : Yes Forced : No Color range : Limited Color primaries : BT.709 Transfer characteristics : BT.709 Matrix coefficients : BT.709 Audio ID : 2 Format : AC-3 Format/Info : Audio Coding 3 Codec ID : A_AC3 Duration : 1 h 53 min Bit rate mode : Constant Bit rate : 448 kb/s Channel(s) : 6 channels Channel positions : Front: L C R, Side: L R, LFE Sampling rate : 48.0 kHz Frame rate : 31.250 FPS (1536 SPF) Bit depth : 16 bits Compression mode : Lossy Delay relative to video : 400 ms Stream size : 365 MiB (20%) Title : VFF AC3 5.1 448kb/s Language : French Service kind : Complete Main Default : Yes Forced : No Text #1 ID : 3 Format : UTF-8 Codec ID : S_TEXT/UTF8 Codec ID/Info : UTF-8 Plain Text Duration : 1 h 7 min Bit rate : 0 b/s Count of elements : 6 Stream size : 226 Bytes (0%) Title : FR Forced Language : French Default : Yes Forced : Yes Text #2 ID : 4 Format : UTF-8 Codec ID : S_TEXT/UTF8 Codec ID/Info : UTF-8 Plain Text Duration : 1 h 52 min Bit rate : 38 b/s Count of elements : 1100 Stream size : 32.1 KiB (0%) Title : FULL FR Language : French Default : No Forced : No Menu 00:00:00.000 : en:00:00:00.000 00:03:28.875 : en:00:03:28.875 00:07:34.621 : en:00:07:34.621 00:11:42.201 : en:00:11:42.201 00:15:44.110 : en:00:15:44.110 00:18:37.408 : en:00:18:37.408 00:25:24.481 : en:00:25:24.481 00:31:40.357 : en:00:31:40.357 00:34:19.307 : en:00:34:19.307 00:40:07.447 : en:00:40:07.447 00:44:36.090 : en:00:44:36.090 00:49:07.778 : en:00:49:07.778 00:55:38.168 : en:00:55:38.168 00:58:57.409 : en:00:58:57.409 01:02:57.190 : en:01:02:57.190 01:10:40.111 : en:01:10:40.111 01:13:42.418 : en:01:13:42.418 01:19:33.477 : en:01:19:33.477 01:22:35.701 : en:01:22:35.701 01:25:49.061 : en:01:25:49.061 01:30:38.350 : en:01:30:38.350 01:32:48.188 : en:01:32:48.188 01:37:59.624 : en:01:37:59.624 01:45:01.045 : en:01:45:01.045 NFO x265 HEVC: General Unique ID : 220292939697821509093930330279303480830 (0xA5BAE07D2E5F2EE596DBA36EEE2085FE) Complete name : Dark.Phoenix.2019.TRUEFRENCH.720p.BluRay.Light.x265.HEVC.AC3-ACOOL.WwW.Zone-Telechargement.Net.mkv Format : Matroska Format version : Version 4 / Version 2 File size : 1.08 GiB Duration : 1 h 53 min Overall bit rate : 1 363 kb/s Movie name : X-Men : Dark Phoenix Encoded date : UTC 2019-09-07 22:14:26 Writing application : mkvmerge v25.0.0 ('Prog Noir') 64-bit Writing library : libebml v1.3.6 + libmatroska v1.4.9 Video ID : 1 Format : HEVC Format/Info : High Efficiency Video Coding Format profile : [email protected]@Main Codec ID : V_MPEGH/ISO/HEVC Duration : 1 h 53 min Bit rate : 913 kb/s Width : 1 280 pixels Height : 536 pixels Display aspect ratio : 2.40:1 Frame rate mode : Constant Frame rate : 23.976 (24000/1001) FPS Color space : YUV Chroma subsampling : 4:2:0 Bit depth : 8 bits Bits/(Pixel*Frame) : 0.055 Stream size : 744 MiB (67%) Default : Yes Forced : No Audio ID : 2 Format : AC-3 Format/Info : Audio Coding 3 Codec ID : A_AC3 Duration : 1 h 53 min Bit rate mode : Constant Bit rate : 448 kb/s Channel(s) : 6 channels Channel positions : Front: L C R, Side: L R, LFE Sampling rate : 48.0 kHz Frame rate : 31.250 FPS (1536 SPF) Bit depth : 16 bits Compression mode : Lossy Delay relative to video : 405 ms Stream size : 365 MiB (33%) Title : VFF AC3 5.1 448kb/s Language : French Service kind : Complete Main Default : Yes Forced : No Text #1 ID : 3 Format : UTF-8 Codec ID : S_TEXT/UTF8 Codec ID/Info : UTF-8 Plain Text Duration : 1 h 7 min Bit rate : 0 b/s Count of elements : 6 Stream size : 226 Bytes (0%) Title : FR Forced Language : French Default : Yes Forced : Yes Text #2 ID : 4 Format : UTF-8 Codec ID : S_TEXT/UTF8 Codec ID/Info : UTF-8 Plain Text Duration : 1 h 52 min Bit rate : 38 b/s Count of elements : 1100 Stream size : 32.1 KiB (0%) Title : FULL FR Language : French Default : No Forced : No Menu 00:00:00.000 : en:00:00:00.000 00:03:28.875 : en:00:03:28.875 00:07:34.621 : en:00:07:34.621 00:11:42.201 : en:00:11:42.201 00:15:44.110 : en:00:15:44.110 00:18:37.408 : en:00:18:37.408 00:25:24.481 : en:00:25:24.481 00:31:40.357 : en:00:31:40.357 00:34:19.307 : en:00:34:19.307 00:40:07.447 : en:00:40:07.447 00:44:36.090 : en:00:44:36.090 00:49:07.778 : en:00:49:07.778 00:55:38.168 : en:00:55:38.168 00:58:57.409 : en:00:58:57.409 01:02:57.190 : en:01:02:57.190 01:10:40.111 : en:01:10:40.111 01:13:42.418 : en:01:13:42.418 01:19:33.477 : en:01:19:33.477 01:22:35.701 : en:01:22:35.701 01:25:49.061 : en:01:25:49.061 01:30:38.350 : en:01:30:38.350 01:32:48.188 : en:01:32:48.188 01:37:59.624 : en:01:37:59.624 01:45:01.045 : en:01:45:01.045